Скачать 3д анализ


47 3 / 47 Ronin 3D ( by Ash61) 964

General

Unique ID : 177483344131508751074712532300213286514 (0x85860C78363537E486C4BB2AC37C7672)

Complete name : E:47Ronin(2013)3D-halfOU(Ash61)47Ronin(2013)3D-halfOU(Ash61).mkv

Format : Matroska

Format version : Version 2

File size : 8.61 GiB

Duration : 1h 58mn

Overall bit rate : 10.4 Mbps

Movie name : 47 / 47 Ronin (2013) 3D

Encoded date : UTC 2014-04-23 17:22:33

Writing application : mkvmerge v5.8.0 ('No Sleep / Pillow') built on Sep 2 2012 15:37:04

Writing library : libebml v1.2.3 + libmatroska v1.3.0

Video

ID : 1

Format : AVC

Format/Info : Advanced Video Codec

Format profile : [email protected]

Format settings, CABAC : Yes

Format settings, ReFrames : 4 frames

Codec ID : V_MPEG4/ISO/AVC

Duration : 1h 58mn

Bit rate : 8 891 Kbps

Width : 1 920 pixels

Height : 1 080 pixels

Display aspect ratio : 16:9

Frame rate mode : Constant

Frame rate : 23.976 fps

Color space : YUV

Chroma subsampling : 4:2:0

Bit depth : 8 bits

Scan type : Progressive

Bits/(Pixel*Frame) : 0.179

Stream size : 7.37 GiB (86%)

Title : BDRip by Ash61

Writing library : x264 core 129 r2245 bc13772

Encoding settings : cabac=1 / ref=4 / deblock=1:-3:-3 / analyse=0x3:0x113 / me=umh / subme=10 / psy=1 / psy_rd=1.00:0.15 / mixed_ref=1 / me_range=32 / chroma_me=1 / trellis=2 / 8x8dct=1 / cqm=0 / deadzone=21,11 / fast_pskip=1 / chroma_qp_offset=-3 / threads=12 / lookahead_threads=2 / sliced_threads=0 / nr=0 / decimate=1 / interlaced=0 / bluray_compat=0 / constrained_intra=0 / bframes=8 / b_pyramid=2 / b_adapt=2 / b_bias=0 / direct=3 / weightb=1 / open_gop=0 / weightp=2 / keyint=250 / keyint_min=23 / scenecut=40 / intra_refresh=0 / rc_lookahead=60 / rc=crf / mbtree=1 / crf=17.0 / qcomp=0.70 / qpmin=0 / qpmax=69 / qpstep=4 / vbv_maxrate=40000 / vbv_bufsize=30000 / crf_max=0.0 / nal_hrd=none / frame-packing=4 / ip_ratio=1.40 / aq=1:0.70

Language : English

Default : Yes

Forced : No

Audio #1

ID : 2

Format : AC-3

Format/Info : Audio Coding 3

Mode extension : CM (complete main)

Format settings, Endianness : Big

Codec ID : A_AC3

Duration : 1h 58mn

Bit rate mode : Constant

Bit rate : 640 Kbps

Channel(s) : 6 channels

Channel positions : Front: L C R, Side: L R, LFE

Sampling rate : 48.0 KHz

Bit depth : 16 bits

Compression mode : Lossy

Stream size : 543 MiB (6%)

Title : - BD CEE

Language : Russian

Default : Yes

Forced : No

Audio #2

ID : 3

Format : AC-3

Format/Info : Audio Coding 3

Mode extension : CM (complete main)

Format settings, Endianness : Big

Codec ID : A_AC3

Duration : 1h 58mn

Bit rate mode : Constant

Bit rate : 640 Kbps

Channel(s) : 6 channels

Channel positions : Front: L C R, Side: L R, LFE

Sampling rate : 48.0 KHz

Bit depth : 16 bits

Compression mode : Lossy

Stream size : 543 MiB (6%)

Title : Original - BD 3D

Language : English

Default : No

Forced : No

Text

ID : 4

Format : UTF-8

Codec ID : S_TEXT/UTF8

Codec ID/Info : UTF-8 Plain Text

Title : (iTunes)

Language : Russian

Default : Yes

Forced : No

Menu

00:00:00.000 : :1

00:04:27.559 : :2

00:11:12.088 : :3

00:16:27.820 : :4

00:20:11.836 : :5

00:26:52.319 : :6

00:31:02.944 : :7

00:36:10.627 : :8

00:43:36.614 : :9

00:50:14.511 : :10

00:54:59.421 : :11

00:59:54.049 : :12

01:09:57.735 : :13

01:13:59.018 : :14

01:19:12.247 : :15

01:24:17.386 : :16

01:33:00.825 : :17

01:38:55.555 : :18

01:44:41.609 : :19

01:48:38.303 : :20

stereotraker.ru

3/ 3 / Xue di zi 3D / The Guillotines 3D ( by Ash61) 937

General

Unique ID : 204563411257151244918270106465931223117 (0x99E57ADC787B48A9B24BF15A6175E04D)

Complete name : E:TheGuillotines(2012)3D-halfOU(Ash61)DVO-5.1TheGuillotines(2012)3D-halfOU(Ash61)DVO-5.1.mkv

Format : Matroska

Format version : Version 2

File size : 15.5 GiB

Duration : 1h 52mn

Overall bit rate : 19.7 Mbps

Movie name : / The Guillotines / Xue di zi (2012) 3D

Encoded date : UTC 2014-02-27 16:42:31

Writing application : mkvmerge v5.8.0 ('No Sleep / Pillow') built on Sep 2 2012 15:37:04

Writing library : libebml v1.2.3 + libmatroska v1.3.0

Video

ID : 1

Format : AVC

Format/Info : Advanced Video Codec

Format profile : [email protected]

Format settings, CABAC : Yes

Format settings, ReFrames : 4 frames

Codec ID : V_MPEG4/ISO/AVC

Bit rate : 18.0 Mbps

Width : 1 920 pixels

Height : 1 080 pixels

Display aspect ratio : 16:9

Frame rate mode : Variable

Original frame rate : 23.976 fps

Color space : YUV

Chroma subsampling : 4:2:0

Bit depth : 8 bits

Scan type : Progressive

Writing library : x264 core 129 r2245 bc13772

Encoding settings : cabac=1 / ref=4 / deblock=1:-3:-3 / analyse=0x3:0x113 / me=umh / subme=10 / psy=1 / psy_rd=1.00:0.15 / mixed_ref=1 / me_range=32 / chroma_me=1 / trellis=2 / 8x8dct=1 / cqm=0 / deadzone=21,11 / fast_pskip=1 / chroma_qp_offset=-3 / threads=12 / lookahead_threads=2 / sliced_threads=0 / nr=0 / decimate=1 / interlaced=0 / bluray_compat=0 / constrained_intra=0 / bframes=9 / b_pyramid=2 / b_adapt=2 / b_bias=0 / direct=3 / weightb=1 / open_gop=0 / weightp=2 / keyint=250 / keyint_min=23 / scenecut=40 / intra_refresh=0 / rc_lookahead=60 / rc=crf / mbtree=1 / crf=16.5 / qcomp=0.70 / qpmin=0 / qpmax=69 / qpstep=4 / vbv_maxrate=40000 / vbv_bufsize=30000 / crf_max=0.0 / nal_hrd=none / frame-packing=4 / ip_ratio=1.40 / aq=1:0.70

Language : Chinese

Default : Yes

Forced : No

Audio #1

ID : 2

Format : AC-3

Format/Info : Audio Coding 3

Mode extension : CM (complete main)

Format settings, Endianness : Big

Codec ID : A_AC3

Duration : 1h 52mn

Bit rate mode : Constant

Bit rate : 640 Kbps

Channel(s) : 6 channels

Channel positions : Front: L C R, Side: L R, LFE

Sampling rate : 48.0 KHz

Bit depth : 16 bits

Compression mode : Lossy

Stream size : 516 MiB (3%)

Title : DVO - (GREEN TEA) (. 5.1 by Ash61)

Language : Russian

Default : Yes

Forced : No

Audio #2

ID : 3

Format : AC-3

Format/Info : Audio Coding 3

Mode extension : CM (complete main)

Format settings, Endianness : Big

Codec ID : A_AC3

Duration : 1h 52mn

Bit rate mode : Constant

Bit rate : 640 Kbps

Channel(s) : 6 channels

Channel positions : Front: L C R, Side: L R, LFE

Sampling rate : 48.0 KHz

Bit depth : 16 bits

Compression mode : Lossy

Stream size : 516 MiB (3%)

Title : Original - BD 3D

Language : Chinese

Default : No

Forced : No

Text

ID : 4

Format : UTF-8

Codec ID : S_TEXT/UTF8

Codec ID/Info : UTF-8 Plain Text

Title :

Language : Russian

Default : Yes

Forced : No

Menu

00:00:00.000 : :1

00:07:44.464 : :2

00:17:24.293 : :3

00:27:03.330 : :4

00:35:26.750 : :5

00:45:17.089 : :6

00:58:16.326 : :7

01:07:58.658 : :8

01:20:44.757 : :9

01:32:19.993 : :10

01:41:58.237 : :11

01:48:57.531 : :12

stereotraker.ru

3 / The Nut Job 3D ( by Ash61) 983

General

Unique ID : 210473986171412173286518103817608516594 (0x9E57D0B41B423295B244B80C5D2C53F2)

Complete name : E:TheNutJob(2013)3D-halfOU(Ash61)TheNutJob(2013)3D-halfOU(Ash61).mkv

Format : Matroska

Format version : Version 2

File size : 5.35 GiB

Duration : 1h 25mn

Overall bit rate : 8 910 Kbps

Movie name : / The Nut Job (2013) 3D

Encoded date : UTC 2014-05-24 05:15:32

Writing application : mkvmerge v5.8.0 ('No Sleep / Pillow') built on Sep 2 2012 15:37:04

Writing library : libebml v1.2.3 + libmatroska v1.3.0

Video

ID : 1

Format : AVC

Format/Info : Advanced Video Codec

Format profile : [email protected]

Format settings, CABAC : Yes

Format settings, ReFrames : 4 frames

Codec ID : V_MPEG4/ISO/AVC

Duration : 1h 25mn

Bit rate : 7 453 Kbps

Width : 1 920 pixels

Height : 1 080 pixels

Display aspect ratio : 16:9

Frame rate mode : Constant

Frame rate : 23.976 fps

Color space : YUV

Chroma subsampling : 4:2:0

Bit depth : 8 bits

Scan type : Progressive

Bits/(Pixel*Frame) : 0.150

Stream size : 4.47 GiB (84%)

Title : BDRip by Ash61 (from BD 3D USA)

Writing library : x264 core 129 r2245 bc13772

Encoding settings : cabac=1 / ref=4 / deblock=1:-3:-3 / analyse=0x3:0x113 / me=umh / subme=10 / psy=1 / psy_rd=1.00:0.15 / mixed_ref=1 / me_range=32 / chroma_me=1 / trellis=2 / 8x8dct=1 / cqm=0 / deadzone=21,11 / fast_pskip=1 / chroma_qp_offset=-3 / threads=12 / lookahead_threads=2 / sliced_threads=0 / nr=0 / decimate=1 / interlaced=0 / bluray_compat=0 / constrained_intra=0 / bframes=8 / b_pyramid=2 / b_adapt=2 / b_bias=0 / direct=3 / weightb=1 / open_gop=0 / weightp=2 / keyint=250 / keyint_min=23 / scenecut=40 / intra_refresh=0 / rc_lookahead=60 / rc=crf / mbtree=1 / crf=17.0 / qcomp=0.70 / qpmin=0 / qpmax=69 / qpstep=4 / vbv_maxrate=40000 / vbv_bufsize=30000 / crf_max=0.0 / nal_hrd=none / frame-packing=4 / ip_ratio=1.40 / aq=1:0.70

Language : English

Default : Yes

Forced : No

Audio #1

ID : 2

Format : AC-3

Format/Info : Audio Coding 3

Mode extension : CM (complete main)

Format settings, Endianness : Big

Codec ID : A_AC3

Duration : 1h 25mn

Bit rate mode : Constant

Bit rate : 640 Kbps

Channel(s) : 6 channels

Channel positions : Front: L C R, Side: L R, LFE

Sampling rate : 48.0 KHz

Bit depth : 16 bits

Compression mode : Lossy

Stream size : 393 MiB (7%)

Title : - BD Rus ( Ash61)

Language : Russian

Default : Yes

Forced : No

Audio #2

ID : 3

Format : AC-3

Format/Info : Audio Coding 3

Mode extension : CM (complete main)

Format settings, Endianness : Big

Codec ID : A_AC3

Duration : 1h 25mn

Bit rate mode : Constant

Bit rate : 640 Kbps

Channel(s) : 6 channels

Channel positions : Front: L C R, Side: L R, LFE

Sampling rate : 48.0 KHz

Bit depth : 16 bits

Compression mode : Lossy

Stream size : 393 MiB (7%)

Title : Original - BD 3D

Language : English

Default : No

Forced : No

Menu

00:00:00.000 : :1

00:02:35.614 : :2

00:05:24.574 : :3

00:09:57.430 : :4

00:14:58.481 : :5

00:17:30.091 : :6

00:22:18.837 : :7

00:27:58.677 : :8

00:32:01.169 : :9

00:37:50.435 : :10

00:40:19.042 : :11

00:44:56.611 : :12

00:48:14.266 : :13

00:53:17.528 : :14

00:58:14.991 : :15

01:03:04.072 : :16

01:08:48.624 : :17

01:13:57.183 : :18

01:19:32.059 : :19

01:23:11.737 : :20

stereotraker.ru

3 / Rabitto hora 3D 925

: 2011: , : : 01:23:04: () [den904 & DeadSno]: / Takashi Shimizu: , , / Sôtarô Hayashi, Daisuke Hosaka, Takashi Shimizu : , , , , . / Satoru Ogura, Masayuki Tanishima, Nobuyuki Tanizawa, Esther Uchino, Michael J. Werner : / Christopher Doyle: / Kenji Kawai: / Noriyoshi Ikeya

GeneralUnique ID : 183092040694166741464328418645556383263 (0x89BE3E8F5F48B730B6C30A36C260CE1F)Complete name : RABBIT_HORROR_3D[stereotraker.ru.].mkvFormat : MatroskaFormat version : Version 2File size : 5.16 GiBDuration : 1h 23mnOverall bit rate : 8 896 KbpsMovie name : 3DEncoded date : UTC 2014-02-08 21:42:45Writing application : mkvmerge v4.5.0 ('Speed of Light') Feb 6 2011 12:51:39Writing library : libebml v1.2.0 + libmatroska v1.1.0Attachment : Yes / Yes

VideoID : 1Format : AVCFormat/Info : Advanced Video CodecFormat profile : [email protected]_Count : 2MultiView_Layout : Both EyeFormat settings, CABAC : YesFormat settings, ReFrames : 4 framesCodec ID : V_MPEG4/ISO/AVCDuration : 1h 23mnBit rate : 8 000 KbpsWidth : 1 920 pixelsHeight : 1 080 pixelsDisplay aspect ratio : 16:9Frame rate mode : ConstantFrame rate : 23.976 fpsColor space : YUVChroma subsampling : 4:2:0Bit depth : 8 bitsScan type : ProgressiveBits/(Pixel*Frame) : 0.161Stream size : 4.54 GiB (88%)Title : 3D Half Top/Bottom, Left firstWriting library : x264 core 130 r2273 b3065e6Encoding settings : cabac=1 / ref=4 / deblock=1:-1:-1 / analyse=0x3:0x133 / me=umh / subme=9 / psy=1 / psy_rd=1.00:0.15 / mixed_ref=1 / me_range=16 / chroma_me=1 / trellis=2 / 8x8dct=1 / cqm=0 / deadzone=21,11 / fast_pskip=1 / chroma_qp_offset=-3 / threads=6 / lookahead_threads=1 / sliced_threads=0 / nr=0 / decimate=1 / interlaced=0 / bluray_compat=0 / constrained_intra=0 / bframes=3 / b_pyramid=2 / b_adapt=2 / b_bias=0 / direct=3 / weightb=1 / open_gop=0 / weightp=2 / keyint=96 / keyint_min=9 / scenecut=40 / intra_refresh=0 / rc_lookahead=60 / rc=2pass / mbtree=1 / bitrate=8000 / ratetol=1.0 / qcomp=0.60 / qpmin=0 / qpmax=69 / qpstep=4 / cplxblur=20.0 / qblur=0.5 / ip_ratio=1.40 / aq=1:1.00Default : YesForced : No

Audio #1ID : 2Format : AC-3Format/Info : Audio Coding 3Mode extension : CM (complete main)Format settings, Endianness : BigCodec ID : A_AC3Duration : 1h 23mnBit rate mode : ConstantBit rate : 256 KbpsChannel(s) : 2 channelsChannel positions : Front: L RSampling rate : 48.0 KHzBit depth : 16 bitsCompression mode : LossyStream size : 152 MiB (3%)Language : RussianDefault : YesForced : No

Audio #2ID : 3Format : AC-3Format/Info : Audio Coding 3Mode extension : CM (complete main)Format settings, Endianness : BigCodec ID : A_AC3Duration : 1h 23mnBit rate mode : ConstantBit rate : 640 KbpsChannel(s) : 6 channelsChannel positions : Front: L C R, Side: L R, LFESampling rate : 48.0 KHzBit depth : 16 bitsCompression mode : LossyStream size : 380 MiB (7%)Language : JapaneseDefault : NoForced : No

Menu00:00:00.000 : :1 - 0:00:0000:05:58.733 : :2 - 0:05:5800:10:46.062 : :3 - 0:10:4600:17:31.717 : :4 - 0:17:3100:21:53.479 : :5 - 0:21:5300:31:59.960 : :6 - 0:31:5900:35:55.862 : :7 - 0:35:5500:44:43.848 : :8 - 0:44:4300:51:10.693 : :9 - 0:51:1000:59:30.567 : :10 - 0:59:3001:08:29.689 : :11 - 1:08:2901:18:22.489 : :12 - 1:18:22

: BDRip (1080p): MKV : AVC : AC3: 1920x1080 (16:9), 23.976 fps, AVC, 8 000 Kbps #1: AC3, 256 Kbps, 48.0 KHz, 2 ch #2: AC3, 640 Kbps, 48.0 KHz, 6 ch

stereotraker.ru

Скачать 3д Анализ

Скачать 3д Анализ

Найдено 71 файл по запросу «скачать 3д анализ»

Скачать 3д Анализ

Главная стр. / Каталог программ / Система / Настройка и оптимизация / 3D-Analyze / Скачать 3D-Analyze Описание: См. полный скриншот Программа для настройки и эмуляции некоторых параметров мощных видеокарт. 3D-Analyze позволяет эмулировать поддержку пиксельных шейдеров, обеспечить поддержку Z и W bufer для устаревших видеокарт и многое другое. Имеется эмуляция конкретных устройств, например nVidia GeForce FX 5900 Ultra или ATI Radeon 9800 Pro. При помощи 3D-Analyze можно запускать на старых или маломощных видеокартах игры и приложения с высокими системными требованиями. Программа вносит изменения в исполняемый файл игры и не скачать morphvox pro русская версия требует загрузки при последующих запусках. 3D-Analyze включает в себя профили настройки для многих популярных игр и приложений. Патч для русификации можно скачать скачать антибан по железу для warface по ссылке http://www.tommti-systems.de/main-Dateien/TOOLS/rus_npatch.rar (49 кб). Как бесплатно скачать? Чтобы начать процесс загрузки на компьютер этой программы - спуститесь ниже по странице. Скачать 3D-Analyze здесь Нажмите кнопку ниже для перехода в зону загрузки... скачать чит на батлу на скрепки золотые Скачиваний Сегодня: 14 / Всего: 126614 Русский язык Возможно (многояз. интерфейс) Лицензия Бесплатно Система Windows Разработчик ToMMTi-Systems Рейтинг 4.0 из 5 баллов Последние отзывы к 3D-Analyze Миша | 2 мая 2015, 00:58 | Оценка: 4 Программа решила проблему с тенями в Мафии 2, очень доволен, даже лаговать меньше стало. Смотреть предыдущие (все) отзывы (24) | Оценить. Написать отзыв ***

20355 статей по запросу «скачать 3д анализ»

21.02.2017 10:58:12

3d-Analyze - скачать бесплатно 3d-Analyze 2.34

22 сен 2004 ... 3d-Analyze - скачать 3d-Analyze 2.34 бесплатно. 3d-Analyze - Утилита для настройки и эмуляции некоторых параметров мощных ...

15.02.2017 10:58:12

Утилита 3D Analyze — МИР NVIDIA

13 авг 2012 ... Утилита представляет собой «твикер» набора драйверов и API DirectX, конкретно DirectDraw/Direct3D части, а также OpenGL.

15.02.2017 09:58:12

3D-Analyze скачать бесплатно для Windows

Скачайте 3D-Analyze сейчас у нас. Без смс и регистраций. Прочитайте отзывы о программе.

18.02.2017 10:58:12

ГИС ПАНОРАМА - Комплекс 3D анализа

Раздел на форуме Как купить Скачать последнюю версию Скачать документацию ... Комплекс 3D анализа предназначен для создания моделей  ...

16.02.2017 09:58:12

Анатомия 3D

Скачать бесплатную версию ... Сравнительный анализ программ «Мышцы и Движения» и «Все о силовой тренировке» ... “All About Strength Training”, включающую в себя программу 3D- анатомии “Muscle & Motion”, бесплатно.

carpodogrev.ru


Смотрите также